Justice League 2017 1080p BluRay x264 Dual Audio ORG [Hindi DD 5 1 - English DD 5 1] ESub [MW]

Justice League 2017 1080p BluRay x264 Dual Audio ORG [Hindi DD 5 1 - English DD 5 1] ESub [MW] Torrent
Size: 2.2 GB
Language: Hindi
Uploader: moviezworldz

Download Justice League 2017 1080p BluRay x264 Dual Audio ORG [Hindi DD 5 1 - English DD 5 1] ESub [MW] Torrent torrent video for PC, tablet, MAC, IPhone or Android device.
Justice League 2017 1080p BluRay x264 Dual Audio ORG [Hindi DD 5 1 - English DD 5 1] ESub [MW] Torrent For Torrent download Link. Scroll down!.


MOVIE TRAILER BELLOW.







General
Format : Matroska
Format version : Version 4 / Version 2
File size : 2.24 GiB
Duration : 2 h 0 min
Overall bit rate : 2 668 kb/s

Video
ID : 1
Format : AVC
Format/Info : Advanced Video Codec
Format profile : [email protected]
Format settings : CABAC / 4 Ref Frames
Format settings, CABAC : Yes
Format settings, RefFrames : 4 frames
Codec ID : V_MPEG4/ISO/AVC
Duration : 2 h 0 min
Bit rate : 2 250 kb/s
Width : 1 920 pixels
Height : 1 072 pixels
Display aspect ratio : 16:9
Frame rate mode : Constant
Frame rate : 23.976 (24000/1001) FPS
Color space : YUV
Chroma subsampling : 4:2:0
Bit depth : 8 bits
Scan type : Progressive
Bits/(Pixel*Frame) : 0.046
Stream size : 1.89 GiB (84%)
Writing library : x264 core 155
Default : Yes
Forced : No

Audio #1
ID : 2
Format : AC-3
Format/Info : Audio Coding 3
Codec ID : A_AC3
Duration : 2 h 0 min
Bit rate mode : Constant
Bit rate : 224 kb/s
Channel(s) : 6 channels
Channel positions : Front: L C R, Side: L R, LFE
Sampling rate : 48.0 kHz
Frame rate : 31.250 FPS (1536 SPF)
Bit depth : 16 bits
Compression mode : Lossy
Stream size : 192 MiB (8%)
Language : Hindi
Service kind : Complete Main
Default : Yes
Forced : No

Audio #2
ID : 3
Format : AC-3
Format/Info : Audio Coding 3
Codec ID : A_AC3
Duration : 2 h 0 min
Bit rate mode : Constant
Bit rate : 192 kb/s
Channel(s) : 6 channels
Channel positions : Front: L C R, Side: L R, LFE
Sampling rate : 48.0 kHz
Frame rate : 31.250 FPS (1536 SPF)
Bit depth : 16 bits
Compression mode : Lossy
Stream size : 165 MiB (7%)
Language : English
Service kind : Complete Main
Default : No
Forced : No

Text
ID : 4
Format : UTF-8
Codec ID : S_TEXT/UTF8
Codec ID/Info : UTF-8 Plain Text
Duration : 1 h 58 min
Bit rate : 42 b/s
Count of elements : 1236
Stream size : 36.6 KiB (0%)
Default : Yes
Forced : No
















Justice League 2017 1080p BluRay x264 Dual Audio ORG [Hindi DD 5 1 - English DD 5 1] ESub [MW] Torrent




Hey Friend! Like us!