Kaw 2007 1080p WEB-DL DD5 1 H 264 CRO-DIAMOND

Kaw 2007 1080p WEB-DL DD5 1 H 264 CRO-DIAMOND Torrent
Size: 3.6 GB
Language: English
Uploader: dmd12

Download Kaw 2007 1080p WEB-DL DD5 1 H 264 CRO-DIAMOND Torrent torrent video for PC, tablet, MAC, IPhone or Android device.
Kaw 2007 1080p WEB-DL DD5 1 H 264 CRO-DIAMOND Torrent For Torrent download Link. Scroll down!.


MOVIE TRAILER BELLOW.






Code:

General
Unique ID : 232179614713811559912781274114932812755 (0xAEAC2AD097909A7C4ACAC48333672BD3)
Complete name : Kaw.2007.1080p.WEB-DL.DD5.1.H.264.CRO-DIAMOND.mkv
Format : Matroska
Format version : Version 4 / Version 2
File size : 3.64 GiB
Duration : 1h 32mn
Overall bit rate : 5 631 Kbps
Movie name : CRO DIAMOND 1080p
Encoded date : UTC 2018-02-23 11:15:27
Writing application : mkvmerge v9.6.0 ('Slave To Your Mind') 64bit
Writing library : libebml v1.3.4 + libmatroska v1.4.5
DURATION : 01:28:04.779000000
NUMBER_OF_FRAMES : 1024
NUMBER_OF_BYTES : 29962
_STATISTICS_WRITING_APP : mkvmerge v9.6.0 ('Slave To Your Mind') 64bit
_STATISTICS_WRITING_DATE_UTC : 2018-02-23 11:15:27
_STATISTICS_TAGS : BPS DURATION NUMBER_OF_FRAMES NUMBER_OF_BYTES

Video
ID : 1
Format : AVC
Format/Info : Advanced Video Codec
Format profile :
[email protected]
Format settings, CABAC : Yes
Format settings, ReFrames : 4 frames
Codec ID : V_MPEG4/ISO/AVC
Duration : 1h 32mn
Bit rate : 5 135 Kbps
Width : 1 920 pixels
Height : 1 080 pixels
Display aspect ratio : 16:9
Frame rate mode : Constant
Frame rate : 23.976 fps
Color space : YUV
Chroma subsampling : 4:2:0
Bit depth : 8 bits
Scan type : Progressive
Bits/(Pixel*Frame) : 0.103
Stream size : 3.32 GiB (91%)
Title : CRO DIAMOND 1080p
Language : English
Default : Yes
Forced : No
Color range : Limited
Color primaries : BT.709
Transfer characteristics : BT.709
Matrix coefficients : BT.709

Audio
ID : 2
Format : AC-3
Format/Info : Audio Coding 3
Mode extension : CM (complete main)
Format settings, Endianness : Big
Codec ID : A_AC3
Duration : 1h 32mn
Bit rate mode : Constant
Bit rate : 384 Kbps
Channel(s) : 6 channels
Channel positions : Front: L C R, Side: L R, LFE
Sampling rate : 48.0 KHz
Compression mode : Lossy
Stream size : 254 MiB (7%)
Language : English
Default : Yes
Forced : No

Text
ID : 3
Format : UTF-8
Codec ID : S_TEXT/UTF8
Codec ID/Info : UTF-8 Plain Text
Language : English
Default : Yes
Forced : No

Menu
00:00:00.000 : en:The Barn
00:07:47.000 : en:Shooting Off His Gun Again
00:13:29.000 : en:Betty's Cook House
00:21:42.000 : en:Tell Me What Happened
00:29:25.000 : en:Wait In The Car
00:37:44.000 : en:Black Bird Plague
00:44:53.000 : en:Stay Inside!
00:53:22.000 : en:I'm So Scared
01:00:17.000 : en:They're Coming Back
01:09:13.000 : en:Keep Going
01:16:28.000 : en:Mad Cow Black Birds
01:23:41.000 : en:Last Stand

Kaw 2007 1080p WEB-DL DD5 1 H 264 CRO-DIAMOND Torrent




Hey Friend! Like us!